1. This site uses cookies to help personalise content, tailor your experience and to keep you logged in if you register.
    By continuing to use this site, you are consenting to our use of cookies.

    Dismiss Notice

FiiO M11-Android 7.0, 2.5/3.5/4.4 Powerful Output, Exynos 7872, Dual AK4493 DAC chips, 3GB RAM, WiFi, Two-way LDAC

Discussion in 'Portable Source Gear' started by FiiO, Mar 19, 2019.
Tags:
First
 
Back
475 476 477 478 479 480 481 482 483 484
486 487 488 489 490 491 492 493 494 495
Next
 
Last
  1. ADANMTXT1
    I just wanted to follow up and thank everyone for the input and great information about this dap. I got one and am so happy with it - it and the sound is so beautiful, beyond what I had hoped for or expected. I have heard some elements to some tracks I have never heard before and it makes me enjoy my music just that much more.
    [​IMG]
    [​IMG]
     
    Last edited: Nov 30, 2019
  2. omlettes
    Does the app report whether it is using the onboard hardware dac or something else?
     
  3. salla45
    Am using Cloudplayer by Doubletwist which I use on all my Android devices to stream from my dropbox account; it indexes my collection in its entirety on the M11 and is responsive and entirely usable.
     
  4. Airsculpture
    in what circumstance ?
     
  5. Micha111
    After further experimenting in the settings of my M11 I finally found the culprit of blocking the deep sleep mode.
    It looks like it was the option double tap to wake on the display.
    After deactivating it, the stand by consumption of my M11 is just 1-2% a day. The battery curve is now almost flat.
     
  6. HaPeKa
    Since saturday I have an M11, so far I'm really happy with the device.
    Sound is great and it is really responsive, compared to the X5III it replaced.

    One thing I observed: In the Fiio App, German Umlauts are not a problem, however, there is an issue with Umlauts in Cue Sheets.
    The content of a specific Cue Sheet begins like the following:

    REM COMMENT "dBpoweramp"
    PERFORMER "Züri West"
    TITLE "Bümpliz-Casablanca"
    FILE "Züri West - Bümpliz-Casablanca.flac" FLAC
    TRACK 01 AUDIO
    TITLE "Drück Ab"
    PERFORMER "Züri West"
    INDEX 00 00:00:00
    INDEX 01 00:00:33
    ...
    TRACK 05 AUDIO
    TITLE "Königin"
    PERFORMER "Züri West"
    INDEX 00 13:02:38
    INDEX 01 13:05:50
    TRACK 06 AUDIO
    TITLE "Bis I Zrügg Bi"
    PERFORMER "Züri West"
    INDEX 01 16:48:38
    TRACK 07 AUDIO
    TITLE "Bümplitz-Casablanca"
    PERFORMER "Züri West"
    INDEX 00 19:28:43
    INDEX 01 19:32:70

    This is shown as follows:

    Screenshot_20191202-173905.png
     
  7. asquare3376
    Hi All,
    Just acquired m11 and filled one card with flacs and other with video files. It plays the videos just fine but does anyone know how to view it in landscape mode. Screen won't rotate.
     
  8. SoundChoice
    Great find, where is this setting?
     
  9. asquare3376
    Settings - General
     
    SoundChoice likes this.
  10. MariusAB
    It is in the settings/ general part, in the bottom part there should be. Removed the marking to deactivate this option. Seems really help to improve battery or properly work deep sleep in m11
     
    SoundChoice likes this.
  11. Augustin79
    I'm not sure about this but in changelog from build 829 (may 27.) it says that the M11 has gotten hi-res support.

    Link
     
    omlettes likes this.
  12. moodsmaster
    You can check the audio path in Poweramp Settings - Audio -Audio Info. If you want to use the M11 full Dac features you have to go to settings - audio - Output - hi-Res Output and activate it there. I hope this helps.
    I get 24bit 384 KHZ so it should be using the full resolution the DAC can provide
     
    Last edited: Dec 3, 2019
  13. jdtenny
    Dear @FiiO, can you please fix your music APP to allow playing all tracks in a directory that contains directories as children. E.g. if I have

    mp3/
    mp3/BillyJoel
    mp3/BillyJoel/musicfile1
    mp3/BillyJoel/musicfile2
    mp3/SteelyDan
    mp3/SteelyDan/musicfile3

    I want to be able to click on 'mp3' and play files from all directories underneath it.

    Clicking on the arrow to the right of the directory does not seem to do anything.
    Clicking into the mp3 directory, then 'select all', then the play button on the bottom left also doesn't do anything.

    Only if the directory has direct playable files underneath it does it work.
     
    Last edited: Dec 3, 2019
  14. cjfreitag
    I’m not getting the alphabet scroll in the FiiO music app in album view. It does show up in other views. I’m using version 1.1.6 of the app and am up to date in firmware. Any suggestions?
     
  15. asquare3376
    Unbearable hissing on Campfire Atlas with rated sensitivity as 105db. Yet to check how Sony IER-Z1R performs with this DAP.
    Strange thing is that only Right side produces the hiss!!!
     
First
 
Back
475 476 477 478 479 480 481 482 483 484
486 487 488 489 490 491 492 493 494 495
Next
 
Last

Share This Page