1. This site uses cookies to help personalise content, tailor your experience and to keep you logged in if you register.
    By continuing to use this site, you are consenting to our use of cookies.

    Dismiss Notice

Lets Talk Metal

Discussion in 'Music' started by zackp, Jan 3, 2009.
First
 
Back
776 777 778 779 780 781 782 783 784 785
787 788 789 790 791 792 793 794 795 796
Next
 
Last
  1. Redcarmoose




    A very unique album and band. A sound all to themselves in a metal world of sound alikes.:)
     
  2. Redcarmoose



    Seeing punk/metal bands at Fenders in Long Beach in the late 80s had a great brotherhood feeling. I express if your drunk off your azz and climb onto the ceiling rafters then jump 7 feet down onto the swilling pit, you better hope your brothers catch you.

    Metallica shows always had a nice friendly feeling too. Not too many trouble makers except the silly stupid drunks.........lol
     
  3. Trogdor

    Investigate their lyrics. I think you might be surprised.
     
  4. wrathzombie
  5. ferday

    Well. Touchée

    The surprise was in the blatant delivery more than the content in some songs. An...interesting trip into famines dark world...
     
  6. Roboturner913
    These guys are from my little neck of the woods:
     

     
  7. AK7579
  8. Tom Yum Goong
  9. markm1
    Entombed is just awesome dynamic range or otherwise. Good listening...such an influence...I instantly think of their influence on Black Breath and Trap Them. Classic metal sound.
     
  10. Trogdor

    DR Peak RMS Filename
    ----------------------------------------------------------------------------------------------

    DR8 -1.22 dB -10.89 dB Entombed - Clandestine -Full Dynamic Range Edition- - 01 Living Dead.wav
    DR8 -1.02 dB -10.95 dB Entombed - Clandestine -Full Dynamic Range Edition- - 02 Sinners Bleed.wav
    DR9 -1.02 dB -11.02 dB Entombed - Clandestine -Full Dynamic Range Edition- - 03 Evilyn.wav
    DR9 -0.81 dB -11.16 dB Entombed - Clandestine -Full Dynamic Range Edition- - 04 Blessed Be.wav
    DR9 -1.37 dB -11.13 dB Entombed - Clandestine -Full Dynamic Range Edition- - 05 Stranger Aeons.wav
    DR9 -1.39 dB -12.22 dB Entombed - Clandestine -Full Dynamic Range Edition- - 06 Chaos Breed.wav
    DR9 -1.39 dB -12.75 dB Entombed - Clandestine -Full Dynamic Range Edition- - 07 Crawl.wav
    DR10 -1.54 dB -12.17 dB Entombed - Clandestine -Full Dynamic Range Edition- - 08 Severe Burns.wav
    DR10 -1.23 dB -12.89 dB Entombed - Clandestine -Full Dynamic Range Edition- - 09 Through the Collonades.wav
    ----------------------------------------------------------------------------------------------

    Number of files: 9
    Official DR value: DR9
     
  11. SoupRKnowva
     
    Yeah I definitely wasn't worried about an FDR release being anything but awesome in regards to dynamic range scores. thanks for the confirmation though Trogdor!
     
  12. Trogdor

    I really feel all of these releases are absolutely MUST BUYs so far. I mean we are talking about the some of the greatest metal releases of all time that sound amazing to boot. How can you go wrong for ~$10 bucks?
     
  13. Trogdor
    Btw Soup's, check out the Cormorant rant, we made contact about bringing higher dynamics to their next release. Not sure what will happen though.
     
  14. SoupRKnowva
    awesome!!!
     
    Also, not that I ever stopped listening to this cd, definitely one of my favorites of the last 5 or so years, but I've been listening to it alot again recently in particular.
     

     
  15. Redcarmoose
First
 
Back
776 777 778 779 780 781 782 783 784 785
787 788 789 790 791 792 793 794 795 796
Next
 
Last

Share This Page