[FiiO M11] Android 7.0, 2.5/3.5/4.4 Powerful Output, Exynos 7872, Dual AK4493 DAC chips, 3GB RAM, WiFi, Two-way LDAC
Nov 30, 2019 at 10:58 PM Post #7,262 of 8,985

salla45

1000+ Head-Fier
Joined
Mar 12, 2014
Posts
1,060
Likes
666
Is anybody using a 3rd party music app on their M11? Do you have a minute?

I'm trying to collect a compatibility list of 3rd party music apps over in this thread (so the information doesn't get lost in this 500 page mega thread). Your comment would help build knowledge that benefits the community and future owners.

Thanks
Am using Cloudplayer by Doubletwist which I use on all my Android devices to stream from my dropbox account; it indexes my collection in its entirety on the M11 and is responsive and entirely usable.
 
Dec 2, 2019 at 6:12 AM Post #7,264 of 8,985

Micha111

New Head-Fier
Joined
Nov 29, 2019
Posts
10
Likes
11
Location
Germany
After further experimenting in the settings of my M11 I finally found the culprit of blocking the deep sleep mode.
It looks like it was the option double tap to wake on the display.
After deactivating it, the stand by consumption of my M11 is just 1-2% a day. The battery curve is now almost flat.
 

Attachments

  • 1C31DA25-55CF-4EF7-A7A5-869D23F57089.jpeg
    1C31DA25-55CF-4EF7-A7A5-869D23F57089.jpeg
    1.2 MB · Views: 0
Dec 2, 2019 at 11:42 AM Post #7,265 of 8,985

HaPeKa

100+ Head-Fier
Joined
Feb 8, 2017
Posts
186
Likes
75
Since saturday I have an M11, so far I'm really happy with the device.
Sound is great and it is really responsive, compared to the X5III it replaced.

One thing I observed: In the Fiio App, German Umlauts are not a problem, however, there is an issue with Umlauts in Cue Sheets.
The content of a specific Cue Sheet begins like the following:

REM COMMENT "dBpoweramp"
PERFORMER "Züri West"
TITLE "Bümpliz-Casablanca"
FILE "Züri West - Bümpliz-Casablanca.flac" FLAC
TRACK 01 AUDIO
TITLE "Drück Ab"
PERFORMER "Züri West"
INDEX 00 00:00:00
INDEX 01 00:00:33
...
TRACK 05 AUDIO
TITLE "Königin"
PERFORMER "Züri West"
INDEX 00 13:02:38
INDEX 01 13:05:50
TRACK 06 AUDIO
TITLE "Bis I Zrügg Bi"
PERFORMER "Züri West"
INDEX 01 16:48:38
TRACK 07 AUDIO
TITLE "Bümplitz-Casablanca"
PERFORMER "Züri West"
INDEX 00 19:28:43
INDEX 01 19:32:70

This is shown as follows:

Screenshot_20191202-173905.png
 
Dec 2, 2019 at 11:59 AM Post #7,266 of 8,985

asquare3376

100+ Head-Fier
Joined
Sep 27, 2014
Posts
481
Likes
83
Location
Wayne, New Jersey
Hi All,
Just acquired m11 and filled one card with flacs and other with video files. It plays the videos just fine but does anyone know how to view it in landscape mode. Screen won't rotate.
 
Dec 3, 2019 at 12:10 AM Post #7,267 of 8,985

SoundChoice

100+ Head-Fier
Joined
Feb 3, 2019
Posts
438
Likes
1,107
Location
USA
After further experimenting in the settings of my M11 I finally found the culprit of blocking the deep sleep mode.
It looks like it was the option double tap to wake on the display.
After deactivating it, the stand by consumption of my M11 is just 1-2% a day. The battery curve is now almost flat.

Great find, where is this setting?
 
Dec 3, 2019 at 2:14 AM Post #7,268 of 8,985

asquare3376

100+ Head-Fier
Joined
Sep 27, 2014
Posts
481
Likes
83
Location
Wayne, New Jersey
Dec 3, 2019 at 9:05 AM Post #7,271 of 8,985

moodsmaster

New Head-Fier
Joined
May 14, 2014
Posts
35
Likes
19
You can check the audio path in Poweramp Settings - Audio -Audio Info. If you want to use the M11 full Dac features you have to go to settings - audio - Output - hi-Res Output and activate it there. I hope this helps.
I get 24bit 384 KHZ so it should be using the full resolution the DAC can provide
 
Last edited:
Dec 3, 2019 at 9:38 AM Post #7,272 of 8,985

jdtenny

100+ Head-Fier
Joined
Jul 19, 2019
Posts
143
Likes
32
Location
USA
Dear @FiiO, can you please fix your music APP to allow playing all tracks in a directory that contains directories as children. E.g. if I have

mp3/
mp3/BillyJoel
mp3/BillyJoel/musicfile1
mp3/BillyJoel/musicfile2
mp3/SteelyDan
mp3/SteelyDan/musicfile3

I want to be able to click on 'mp3' and play files from all directories underneath it.

Clicking on the arrow to the right of the directory does not seem to do anything.
Clicking into the mp3 directory, then 'select all', then the play button on the bottom left also doesn't do anything.

Only if the directory has direct playable files underneath it does it work.
 
Last edited:
Dec 3, 2019 at 9:45 AM Post #7,273 of 8,985

cjfreitag

100+ Head-Fier
Joined
Aug 21, 2014
Posts
165
Likes
70
I’m not getting the alphabet scroll in the FiiO music app in album view. It does show up in other views. I’m using version 1.1.6 of the app and am up to date in firmware. Any suggestions?
 
Dec 3, 2019 at 2:33 PM Post #7,274 of 8,985

asquare3376

100+ Head-Fier
Joined
Sep 27, 2014
Posts
481
Likes
83
Location
Wayne, New Jersey
Unbearable hissing on Campfire Atlas with rated sensitivity as 105db. Yet to check how Sony IER-Z1R performs with this DAP.
Strange thing is that only Right side produces the hiss!!!
 
Dec 3, 2019 at 10:24 PM Post #7,275 of 8,985

salla45

1000+ Head-Fier
Joined
Mar 12, 2014
Posts
1,060
Likes
666
hi.

is there any difference between the 4.4mm and 2.5mm connections in terms of SQ of the M11? Am thinking of getting the BTR5 to upgrade my BTR3 and that's got a 2.5mm socket, my X7ii has 2.5mm too, so getting the Fiio LC 2.5mm upgrade cable seems to be a +ve upgrade for my FH7s, but wondering if I'm losing out over the 4.4mm?
 

Users who are viewing this thread

Top