Head-Fi.org › Forums › Help and Getting Started › Introductions, Help and Recommendations › New Here :) Very Excited :)
New Posts  All Forums:Forum Nav:

New Here :) Very Excited :) - Page 2

post #16 of 19
Thread Starter 
Quote:
Originally Posted by kl2u View Post

Hi...



 



I'm new too. Don't want to hijack this thread. Just to say hi...


 



Hey! smily_headphones1.gif whats your set up?
post #17 of 19
Quote:
Originally Posted by jtaylor781 View Post

Thanks for all the replys everyone!smily_headphones1.gif

Where do you all get your flac files from? I don't mind if it's legal or not I'm easy haha!

A terrific source for classical music  is eclassical.com. A more eclectic selection of genres is at CDBaby, which now offers many of its titles by download.  There are other options, but these are two that I use all the time.  In the US, hdtracks.com probably has the deepest catalog and the most jazz, rock,and pop.  

post #18 of 19
Thread Starter 
Quote:
Originally Posted by flatmap View Post

A terrific source for classical music  is eclassical.com. A more eclectic selection of genres is at CDBaby, which now offers many of its titles by download.  There are other options, but these are two that I use all the time.  In the US, hdtracks.com probably has the deepest catalog and the most jazz, rock,and pop.  

 



Thanks! biggrin.gif i will check these out! smily_headphones1.gif
post #19 of 19
Thread Starter 

Just got dBpoweramp and riped a cd, here are my results is this good or bad?? I chose Lossless:) thanks

 

Information ripping to FLAC, 'Track 1' to 'C:\Users\Jordan\Music\Phil Collins Big Band, The\A Hot Night in Paris\01 Phil Collins Big Band, The - Sussudio.flac'
   Track 1:  Ripped LBA 0 to 30935 (6:52) in 0:42. Filename: C:\Users\Jordan\Music\Phil Collins Big Band, The\A Hot Night in Paris\01 Phil Collins Big Band, The - Sussudio.flac
     AccurateRip: Accurate (confidence 26)     [Pass 1]
     CRC32: 5625175E     AccurateRip CRC: 9A51C0C8 (CRCv2)     [DiscID: 010-00181898-00c32de7-9010a40a-1]
     AccurateRip Verified Confidence 26 [CRCv2 9a51c0c8]
     AccurateRip Verified Confidence 59 [CRCv1 488a0a52]
     AccurateRip Verified Confidence 10 [CRCv2 5a1c82e7], Using Pressing Offset -669
     AccurateRip Verified Confidence 9 [CRCv1 f660c661], Using Pressing Offset -669
  
Information ripping to FLAC, 'Track 2' to 'C:\Users\Jordan\Music\Phil Collins Big Band, The\A Hot Night in Paris\02 Phil Collins Big Band, The - That's All.flac'
   Track 2:  Ripped LBA 30935 to 56012 (5:34) in 0:25. Filename: C:\Users\Jordan\Music\Phil Collins Big Band, The\A Hot Night in Paris\02 Phil Collins Big Band, The - That's All.flac
     AccurateRip: Accurate (confidence 27)     [Pass 1]
     CRC32: 22BBB2DB     AccurateRip CRC: 095D9BA8 (CRCv2)     [DiscID: 010-00181898-00c32de7-9010a40a-2]
     AccurateRip Verified Confidence 27 [CRCv2 95d9ba8]
     AccurateRip Verified Confidence 59 [CRCv1 89ec854e]
     AccurateRip Verified Confidence 10 [CRCv2 8c1963b0], Using Pressing Offset -669
     AccurateRip Verified Confidence 9 [CRCv1 15844fbc], Using Pressing Offset -669
  
Information ripping to FLAC, 'Track 3' to 'C:\Users\Jordan\Music\Phil Collins Big Band, The\A Hot Night in Paris\03 Phil Collins Big Band, The - Invisible Touch.flac'
   Track 3:  Ripped LBA 56012 to 81692 (5:42) in 0:23. Filename: C:\Users\Jordan\Music\Phil Collins Big Band, The\A Hot Night in Paris\03 Phil Collins Big Band, The - Invisible Touch.flac
     AccurateRip: Accurate (confidence 27)     [Pass 1]
     CRC32: 80DD24A5     AccurateRip CRC: 1B12BC55 (CRCv2)     [DiscID: 010-00181898-00c32de7-9010a40a-3]
     AccurateRip Verified Confidence 27 [CRCv2 1b12bc55]
     AccurateRip Verified Confidence 60 [CRCv1 6bf142ab]
     AccurateRip Verified Confidence 10 [CRCv2 9ac0dd60], Using Pressing Offset -669
     AccurateRip Verified Confidence 9 [CRCv1 b270285c], Using Pressing Offset -669
  
Information ripping to FLAC, 'Track 4' to 'C:\Users\Jordan\Music\Phil Collins Big Band, The\A Hot Night in Paris\04 Phil Collins Big Band, The - Hold on My Heart.flac'
   Track 4:  Ripped LBA 81692 to 111457 (6:36) in 0:25. Filename: C:\Users\Jordan\Music\Phil Collins Big Band, The\A Hot Night in Paris\04 Phil Collins Big Band, The - Hold on My Heart.flac
     AccurateRip: Accurate (confidence 27)     [Pass 1]
     CRC32: 124DE53E     AccurateRip CRC: 6901F619 (CRCv2)     [DiscID: 010-00181898-00c32de7-9010a40a-4]
     AccurateRip Verified Confidence 27 [CRCv2 6901f619]
     AccurateRip Verified Confidence 60 [CRCv1 2fa62261]
     AccurateRip Verified Confidence 10 [CRCv2 852c0b42], Using Pressing Offset -669
     AccurateRip Verified Confidence 9 [CRCv1 413916bf], Using Pressing Offset -669
  
Information ripping to FLAC, 'Track 5' to 'C:\Users\Jordan\Music\Phil Collins Big Band, The\A Hot Night in Paris\05 Phil Collins Big Band, The - Chips & Salsa.flac'
   Track 5:  Ripped LBA 111457 to 135682 (5:23) in 0:19. Filename: C:\Users\Jordan\Music\Phil Collins Big Band, The\A Hot Night in Paris\05 Phil Collins Big Band, The - Chips & Salsa.flac
     AccurateRip: Accurate (confidence 27)     [Pass 1]
     CRC32: 4D82AE03     AccurateRip CRC: DF4EF70C (CRCv2)     [DiscID: 010-00181898-00c32de7-9010a40a-5]
     AccurateRip Verified Confidence 27 [CRCv2 df4ef70c]
     AccurateRip Verified Confidence 60 [CRCv1 e088d63a]
     AccurateRip Verified Confidence 10 [CRCv2 a3bab898], Using Pressing Offset -669
     AccurateRip Verified Confidence 9 [CRCv1 a2b5740d], Using Pressing Offset -669
  
Information ripping to FLAC, 'Track 6' to 'C:\Users\Jordan\Music\Phil Collins Big Band, The\A Hot Night in Paris\06 Phil Collins Big Band, The - I Don't Care Anymore.flac'
   Track 6:  Ripped LBA 135682 to 163107 (6:05) in 0:20. Filename: C:\Users\Jordan\Music\Phil Collins Big Band, The\A Hot Night in Paris\06 Phil Collins Big Band, The - I Don't Care Anymore.flac
     AccurateRip: Accurate (confidence 27)     [Pass 1]
     CRC32: B9A20574     AccurateRip CRC: 97ED50CD (CRCv2)     [DiscID: 010-00181898-00c32de7-9010a40a-6]
     AccurateRip Verified Confidence 27 [CRCv2 97ed50cd]
     AccurateRip Verified Confidence 60 [CRCv1 417e5a05]
     AccurateRip Verified Confidence 9 [CRCv2 f1986813], Using Pressing Offset -669
     AccurateRip Verified Confidence 9 [CRCv1 76f39099], Using Pressing Offset -669
  
Information ripping to FLAC, 'Track 7' to 'C:\Users\Jordan\Music\Phil Collins Big Band, The\A Hot Night in Paris\07 Phil Collins Big Band, The - Milestones.flac'
   Track 7:  Ripped LBA 163107 to 192675 (6:34) in 0:20. Filename: C:\Users\Jordan\Music\Phil Collins Big Band, The\A Hot Night in Paris\07 Phil Collins Big Band, The - Milestones.flac
     AccurateRip: Accurate (confidence 27)     [Pass 1]
     CRC32: DC8E1A48     AccurateRip CRC: C0FBABCB (CRCv2)     [DiscID: 010-00181898-00c32de7-9010a40a-7]
     AccurateRip Verified Confidence 27 [CRCv2 c0fbabcb]
     AccurateRip Verified Confidence 60 [CRCv1 a313618]
     AccurateRip Verified Confidence 9 [CRCv2 ad3e0214], Using Pressing Offset -669
     AccurateRip Verified Confidence 9 [CRCv1 f6afc814], Using Pressing Offset -669
  
Information ripping to FLAC, 'Track 8' to 'C:\Users\Jordan\Music\Phil Collins Big Band, The\A Hot Night in Paris\08 Phil Collins Big Band, The - Against All Odds (Take a Look at Me Now).flac'
   Track 8:  Ripped LBA 192675 to 215480 (5:04) in 0:15. Filename: C:\Users\Jordan\Music\Phil Collins Big Band, The\A Hot Night in Paris\08 Phil Collins Big Band, The - Against All Odds (Take a Look at Me Now).flac
     AccurateRip: Accurate (confidence 27)     [Pass 1]
     CRC32: 5FFEF666     AccurateRip CRC: 3D2A67C3 (CRCv2)     [DiscID: 010-00181898-00c32de7-9010a40a-8]
     AccurateRip Verified Confidence 27 [CRCv2 3d2a67c3]
     AccurateRip Verified Confidence 58 [CRCv1 f99cc3a0]
     AccurateRip Verified Confidence 9 [CRCv2 ccd0dffc], Using Pressing Offset -669
     AccurateRip Verified Confidence 9 [CRCv1 8536fb95], Using Pressing Offset -669
  
Information ripping to FLAC, 'Track 9' to 'C:\Users\Jordan\Music\Phil Collins Big Band, The\A Hot Night in Paris\09 Phil Collins Big Band, The - Pick Up the Pieces.flac'
   Track 9:  Ripped LBA 215480 to 272570 (12:41) in 0:35. Filename: C:\Users\Jordan\Music\Phil Collins Big Band, The\A Hot Night in Paris\09 Phil Collins Big Band, The - Pick Up the Pieces.flac
     AccurateRip: Accurate (confidence 27)     [Pass 1]
     CRC32: 8F33A04A     AccurateRip CRC: E71000DD (CRCv2)     [DiscID: 010-00181898-00c32de7-9010a40a-9]
     AccurateRip Verified Confidence 27 [CRCv2 e71000dd]
     AccurateRip Verified Confidence 59 [CRCv1 82d53de]
     AccurateRip Verified Confidence 9 [CRCv2 fe77bdbb], Using Pressing Offset -669
     AccurateRip Verified Confidence 8 [CRCv1 dc96d441], Using Pressing Offset -669
  
Information ripping to FLAC, 'Track 10' to 'C:\Users\Jordan\Music\Phil Collins Big Band, The\A Hot Night in Paris\10 Phil Collins Big Band, The - Los Endos Suite.flac'
   Track 10:  Ripped LBA 272570 to 319550 (10:26) in 0:27. Filename: C:\Users\Jordan\Music\Phil Collins Big Band, The\A Hot Night in Paris\10 Phil Collins Big Band, The - Los Endos Suite.flac
     AccurateRip: Accurate (confidence 26)     [Pass 1]
     CRC32: E299641B     AccurateRip CRC: AB8A0F48 (CRCv2)     [DiscID: 010-00181898-00c32de7-9010a40a-10]
     AccurateRip Verified Confidence 26 [CRCv2 ab8a0f48]
     AccurateRip Verified Confidence 55 [CRCv1 d4332a5d]
     AccurateRip Verified Confidence 9 [CRCv2 ca714fb], Using Pressing Offset -669
     AccurateRip Verified Confidence 9 [CRCv1 13625ac4], Using Pressing Offset -669
 

New Posts  All Forums:Forum Nav:
  Return Home
Head-Fi.org › Forums › Help and Getting Started › Introductions, Help and Recommendations › New Here :) Very Excited :)