Head-Fi.org › Forums › Equipment Forums › Portable Source Gear › how to split an flac file?
New Posts  All Forums:Forum Nav:

how to split an flac file?

post #1 of 4
Thread Starter 

I downloaded this album of Enrique Iglasias - Insomniac which only contains 3 files

 

Enrique Iglasias - Insomniac.cue

Enrique Iglasias - Insomniac.log

Enrique Iglasias - Insomniac.flac (398 MB)

 

when I play them in foobar2000 using the .cue file, the tracklist of individual tracks are available. but when I directly play the flac file, there are no tracks but one. I want to extract track no. 1 2 & 4 only. How is it possible?

post #2 of 4

Medieval CUE splitter. Some people argue that are better options out there, but that one is faster.  

Do not misunderstand me but, it would be easier to check online:

Keywords: split flac file

post #3 of 4
Thread Starter 

Thank you for your kind reply.

Actually I found a way . . cuetools is a pretty nifty application which I found earlier & liked very much.using foobar2000 with flac.exe it can also be accomplished but the artwork vanishes. see the mediainfo the track I extracted/encoded with foobar2000.

foobar2000-mediainfo

 

 

Quote:
General
Complete name                            : C:\Users\Redlah\Desktop\zzzzzzzzzzzzzzzzzzz\Miss You.flac
Format                                   : FLAC
Format/Info                              : Free Lossless Audio Codec
File size                                : 24.7 MiB
Duration                                 : 3mn 23s
Overall bit rate mode                    : Variable
Overall bit rate                         : 1 018 Kbps
Album                                    : Insomniac (460502601105)
Track name                               : Miss You
Track name/Position                      : 7
Track name/Total                         : 17
Performer                                : Enrique Iglesias
Genre                                    : Pop
Recorded date                            : 2008
Comment                                  : ExactAudioCopy v0.99pb5
 
Audio
Format                                   : FLAC
Format/Info                              : Free Lossless Audio Codec
Duration                                 : 3mn 23s
Bit rate mode                            : Variable
Bit rate                                 : 1 018 Kbps
Channel(s)                               : 2 channels
Sampling rate                            : 44.1 KHz
Bit depth                                : 16 bits
Stream size                              : 24.7 MiB (100%)
Writing library                          : libFLAC 1.2.1 (UTC 2007-09-17)
 

the artwork is gone. but the cuetools gave me such a sbelow.

Cuetools-mediainfo

 

 

Quote:
General
Complete name                            : C:\Users\Redlah\Desktop\07. Miss You.flac
Format                                   : FLAC
Format/Info                              : Free Lossless Audio Codec
File size                                : 24.5 MiB
Duration                                 : 3mn 23s
Overall bit rate mode                    : Variable
Overall bit rate                         : 1 012 Kbps
Album                                    : Insomniac
Part                                     : 1
Part/Total                               : 1
Track name                               : Miss You
Track name/Position                      : 7
Track name/Total                         : 17
Performer                                : Enrique Iglesias
Recorded date                            : 2007
Cover                                    : Yes
Cover description                        : folder.jpg
Cover type                               : Cover (front)
Cover MIME                               : image/jpeg
Comment                                  : Tracks 16 and 17 are bonus tracks. /  / ℗ 2008 Interscope Records. © 2008 Interscope Records, a division of UMG Records Inc. ©℗ ООО «Юниверсал Мьюзик» 2007. / Изготовители: ООО «Си Ди Клуб»; ООО «Уральский электронный завод». 
RELEASE DATE                             : 2008
RELEASECOUNTRY                           : RU
PUBLISHER                                : Interscope Records
LABELNO                                  : 460502601105
 
Audio
Format                                   : FLAC
Format/Info                              : Free Lossless Audio Codec
Duration                                 : 3mn 23s
Bit rate mode                            : Variable
Bit rate                                 : 1 011 Kbps
Channel(s)                               : 2 channels
Sampling rate                            : 44.1 KHz
Bit depth                                : 16 bits
Stream size                              : 24.5 MiB (100%)
Writing library                          : FLACCL#0.4
 

the reason I liked this app is because it has the support of FLACCL command line encoder support that accletares transcoding process by using CUDA process on Nvidia GPU. Just for fun I compared the waveforms.

upper one is foobar2000 one & the lower one is the Cuetools one.

 

1000

 

1000

post #4 of 4
Quote:
Originally Posted by squallkiercosa View Post

Medieval CUE splitter. 

I've used this one many times.....always worked well for me.

New Posts  All Forums:Forum Nav:
  Return Home
  Back to Forum: Portable Source Gear
Head-Fi.org › Forums › Equipment Forums › Portable Source Gear › how to split an flac file?