Head-Fi.org › Forums › Misc.-Category Forums › Music › Lets Talk Metal
New Posts  All Forums:Forum Nav:

Lets Talk Metal - Page 511

post #7651 of 15702
Quote:
Originally Posted by Pual View Post


I love that documentary!

You've seen it before or was this your first time?
post #7652 of 15702
Quote:
Originally Posted by ferday View Post

in the interest of posting stuff...

 

i've been trying to increase my collection (and knowledge) of thrash (and metal in general), especially from a historical context.  i just discovered this oldie but really enjoying it (and embarrassingly never heard of it), so i thought i'd share a track for yall

 

 

Razor rips, Evil Invaders is a killer album, check it out if you haven't heard it yet.  If you're on a quest for classic thrash, here's a few of my favorite 3rd and 4th tier bands:

 

Blessed Death - Pig Slaughter

 

Exciter - Heavy Metal Maniac

 

Atrophy - Chemical Dependency 

Totally bogus art, but this rips.  Skip to the minute mark unless you want to sit through a bunch of intro noises.

 

Demolition Hammer - .44 Caliber Brain Surgery

 

Let me know if you want more...

post #7653 of 15702

i know i said it before, back when Forging Towards the Sunset first came out, but its basically the same song as Paragon Pariah...its even the same length at 3:47 -_-

 

included DR reports for each CD for the lulz...cause passion was bad...but holy heck is Vanitas worse off

 

 

foobar2000 1.1.11 / Dynamic Range Meter 1.1.1
log date: 2012-11-15 19:49:33

--------------------------------------------------------------------------------
Analyzed: Anaal Nathrakh / Passion
--------------------------------------------------------------------------------

DR         Peak         RMS     Duration Track
--------------------------------------------------------------------------------
DR5       -0.10 dB    -6.51 dB      4:59 01-Volenti Non Fit Iniuria
DR7       -0.10 dB    -7.79 dB      7:28 02-Drug-******* Abomination
DR4       -0.10 dB    -5.45 dB      1:42 03-Post Traumatic Stress Euphoria
DR5       -0.10 dB    -5.61 dB      3:42 04-Le Diabolique Est L'ami Du Simple
DR5       -0.10 dB    -6.18 dB      1:01 05-Locus Of Damnation
DR5       -0.10 dB    -5.35 dB      4:15 06-Tod Huetet Uebel
DR5       -0.10 dB    -6.05 dB      3:47 07-Paragon Pariah
DR5       -0.10 dB    -5.77 dB      3:58 08-Who Thinks Of The Executioner
DR5       -0.10 dB    -6.54 dB      3:58 09-Ashes Screaming Silence
DR9       -0.10 dB   -13.96 dB      1:20 10-Portrait Of The Artist
--------------------------------------------------------------------------------

Number of tracks:  10
Official DR value: DR5

Samplerate:        44100 Hz
Channels:          2
Bits per sample:   16
Bitrate:           862 kbps
Codec:             ALAC
================================================================================
 

 

 

foobar2000 1.1.11 / Dynamic Range Meter 1.1.1
log date: 2012-11-15 19:55:03

--------------------------------------------------------------------------------
Analyzed: Anaal Nathrakh / Vanitas
--------------------------------------------------------------------------------

DR         Peak         RMS     Duration Track
--------------------------------------------------------------------------------
DR3        0.00 dB    -3.71 dB      3:21 01-The Blood-Dimmed Tide
DR3        0.00 dB    -3.59 dB      3:47 02-Forging Towards the Sunset
DR3        0.00 dB    -3.14 dB      4:04 03-To Spite the Face
DR3        0.00 dB    -3.33 dB      4:15 04-Todos Somos Humanos
DR3        0.00 dB    -3.12 dB      4:32 05-In Coelo Quies, Tout Finis Ici Bas
DR3        0.00 dB    -3.29 dB      3:03 06-You Can't Save Me, So Stop ******* Trying
DR3        0.00 dB    -3.42 dB      2:42 07-Make Glorious the Embrace of Saturn
DR3        0.00 dB    -3.74 dB      4:59 08-Feeding the Beast
DR3        0.00 dB    -2.96 dB      3:01 09-Of Fire, and ******* Pigs
DR3        0.00 dB    -4.39 dB      4:20 10-A Metaphor for the Dead
--------------------------------------------------------------------------------

Number of tracks:  10
Official DR value: DR3

Samplerate:        44100 Hz
Channels:          2
Bitrate:           320 kbps
Codec:             MP3
================================================================================

 

just try and say those arent the same song
 

post #7654 of 15702
Quote:
Originally Posted by samsquanch View Post

 

Razor rips, Evil Invaders is a killer album, check it out if you haven't heard it yet.  If you're on a quest for classic thrash, here's a few of my favorite 3rd and 4th tier bands:

 

Blessed Death - Pig Slaughter

 

 

Exciter - Heavy Metal Maniac

 

 

Atrophy - Chemical Dependency 

Totally bogus art, but this rips.  Skip to the minute mark unless you want to sit through a bunch of intro noises.

 

 

Demolition Hammer - .44 Caliber Brain Surgery

 

 

Let me know if you want more...

 

thank you sir!   i have exciter, but haven't heard of the other 3!  demolition hammer is right up my fuzzy feeling alley...

post #7655 of 15702
Quote:
Originally Posted by Trogdor View Post


You've seen it before or was this your first time?


Seen it - its how I found out about Car Bomb originally.

post #7656 of 15702
Quote:
Originally Posted by wrathzombie View Post

 

I was wondering if you could review:

 

Deadly Remains - Severing Humanity and the new Deftones album


We'll see. biggrin.gif

post #7657 of 15702

 

O-M-G

post #7658 of 15702
Quote:
Originally Posted by SoupRKnowva View Post

i know i said it before, back when Forging Towards the Sunset first came out, but its basically the same song as Paragon Pariah...its even the same length at 3:47 -_-

included DR reports for each CD for the lulz...cause passion was bad...but holy heck is Vanitas worse off



foobar2000 1.1.11 / Dynamic Range Meter 1.1.1

log date: 2012-11-15 19:49:33



Analyzed: Anaal Nathrakh / Passion



DR         Peak         RMS     Duration Track


DR5       -0.10 dB    -6.51 dB      4:59 01-Volenti Non Fit Iniuria

DR7       -0.10 dB    -7.79 dB      7:28 02-Drug-******* Abomination

DR4       -0.10 dB    -5.45 dB      1:42 03-Post Traumatic Stress Euphoria

DR5       -0.10 dB    -5.61 dB      3:42 04-Le Diabolique Est L'ami Du Simple

DR5       -0.10 dB    -6.18 dB      1:01 05-Locus Of Damnation

DR5       -0.10 dB    -5.35 dB      4:15 06-Tod Huetet Uebel

DR5       -0.10 dB    -6.05 dB      3:47 07-Paragon Pariah

DR5       -0.10 dB    -5.77 dB      3:58 08-Who Thinks Of The Executioner

DR5       -0.10 dB    -6.54 dB      3:58 09-Ashes Screaming Silence

DR9       -0.10 dB   -13.96 dB      1:20 10-Portrait Of The Artist



Number of tracks:  10

Official DR value: DR5


Samplerate:        44100 Hz

Channels:          2

Bits per sample:   16

Bitrate:           862 kbps

Codec:             ALAC

================================================================================

 



foobar2000 1.1.11 / Dynamic Range Meter 1.1.1

log date: 2012-11-15 19:55:03



Analyzed: Anaal Nathrakh / Vanitas



DR         Peak         RMS     Duration Track


DR3        0.00 dB    -3.71 dB      3:21 01-The Blood-Dimmed Tide

DR3        0.00 dB    -3.59 dB      3:47 02-Forging Towards the Sunset

DR3        0.00 dB    -3.14 dB      4:04 03-To Spite the Face

DR3        0.00 dB    -3.33 dB      4:15 04-Todos Somos Humanos

DR3        0.00 dB    -3.12 dB      4:32 05-In Coelo Quies, Tout Finis Ici Bas

DR3        0.00 dB    -3.29 dB      3:03 06-You Can't Save Me, So Stop ******* Trying

DR3        0.00 dB    -3.42 dB      2:42 07-Make Glorious the Embrace of Saturn

DR3        0.00 dB    -3.74 dB      4:59 08-Feeding the Beast

DR3        0.00 dB    -2.96 dB      3:01 09-Of Fire, and ******* Pigs

DR3        0.00 dB    -4.39 dB      4:20 10-A Metaphor for the Dead



Number of tracks:  10

Official DR value: DR3


Samplerate:        44100 Hz

Channels:          2

Bitrate:           320 kbps

Codec:             MP3

================================================================================

just try and say those arent the same song

 


I compared two FLAC versions and got almost the same numbers. On Vanitas the TT Meter actually dips into DR2 for two songs making the average under DR3, hence my score.

This is by FAR the worse produced CD I have heard this year.

I also found the "turn the bass" up comment from them to be disheartening since it shows their complete lack of understanding of dynamic range.

Vanitas is really a shame on so many levels given how strong musically it is.
post #7659 of 15702
Quote:
Originally Posted by Redcarmoose View Post


O-M-G

Hmmm, some Polish fun. Redcarmoose, thanks for this, will check them out.
post #7660 of 15702

Criminally underrated, Miyazaki film-inspired, cinematic Symphonic Extreme metal from Grand Nippon. Still remains one of my favorite records bearing the symphonic flavor of all time. The youtube compression/quality really undermines how expansive this record sounds.

 

 

But... in other news:

 

Lunar Aurora:

 

Quote:

Dear friends,


it has always been clear that also LUNAR AURORA will end some day. And this autumn we felt that it is time to lay the band to rest. We came to that decision for various reasons, the two following may be the most significant. On one hand our imaginations of future musical projects are difficult to reconcile with LUNAR AURORA, on the other hand we feel that LUNAR AURORA is out of tune with these times. We have never been people that speechify, so we won't make a big deal out of that, either.

It have been 18 great years and for that we want to say a big "THANK YOU!" to the people who have been with us during those years. Especially the fans as well as the bands we played with or did projects with. Not to forget the magazines, distributors, concert promoters, without whom publicity would not have been possible. Our label partners Frank Stöver, Andreas Lacher and Tom Wahl we owe deep thankfulness for their energy and trust.

With deep gratefulness we think of our bandmates Sindar, Nathaniel, Profanatitas, Biil, Skoarth and Bernhard Klepper for all they did for LUNAR AURORA with great dedication.

Although there won't be a new LUNAR AURORA album anymore, we will make sure that the long out of stock albums "... of stargates...", "Elixir of Sorrow" and "A haudiga Fluag" will be available through COLD DIMENSIONS within the next 1-2 years.

Until we meet again...

 

 

Sigh... right as they were back on with a new record they disappear yet again, but seemingly more definitive this time. I know MaZa is probably howling right now.


Edited by vaed - 11/16/12 at 5:05pm
post #7661 of 15702
Quote:
Originally Posted by vaed View Post

Criminally underrated, Miyazaki film-inspired, cinematic Symphonic Extreme metal from Grand Nippon. Still remains one of my favorite records bearing the symphonic flavor of all time. The youtube compression/quality really undermines how expansive this record sounds.



But... in other news:

Lunar Aurora:



Sigh... right as they were back on with a new record they disappear yet again, but seemingly more definitive this time. I know MaZa is probably howling right now.

I am sitting next MaZa howling with him. I just read this as well. This sucks.
post #7662 of 15702
Quote:
Originally Posted by Trogdor View Post


Hmmm, some Polish fun. Redcarmoose, thanks for this, will check them out.

 

1000

 

This new album of greatest hits will be 2 hours and 18 minutes long and composed of 32 songs!

 

 

 

 

1000

 

 

 

About 48 hours till the air-ship lands!


Edited by Redcarmoose - 11/16/12 at 7:49pm
post #7663 of 15702
Quote:
Originally Posted by Redcarmoose View Post

 

 

 

This may be the most underrated metal drumming record of all time! I'm just amazed at the talent here.

 

So I was listening to 'Lateralus - Tool' and I was thinking I never noticed their drumming. While I am listening, my Foobar customization allows me to see Band's biography and I am reading about the album and there is a list of best drum records of all time and Lateralus is number 1 on it. (http://www.digitaldreamdoor.com/pages/best_albums-drum.html). So I go to the list and just do random search of the albums that I could remember which had awesome drummers and all of them were featured there.

 

Mastodon - Blood Mountain

Mastodon - Leviathan

Death - Sounds of Perseverance

Opeth - Blackwater Park

Don Caballero 2 - Don Caballero

 

And then I remembered this thread and wanted to tell Mr. REDCARMOOSE;

 

Mastodon Metal Drumming is not UNDERRATED!! PERIOD gs1000.gif

post #7664 of 15702
Quote:
Originally Posted by vaed View Post

Criminally underrated, Miyazaki film-inspired, cinematic Symphonic Extreme metal from Grand Nippon. Still remains one of my favorite records bearing the symphonic flavor of all time. The youtube compression/quality really undermines how expansive this record sounds.

 

 

But... in other news:

 

 

 

typijng this with a bbaBy on  my lap. but cartoon inspired black metal??


Edited by Negakinu - 11/17/12 at 2:35am
post #7665 of 15702

 

 

And then I remembered this thread and wanted to tell Mr. REDCARMOOSE;

 

Mastodon Metal Drumming is not UNDERRATED!! PERIOD gs1000.gif

 

1000

New Posts  All Forums:Forum Nav:
  Return Home
  Back to Forum: Music
Head-Fi.org › Forums › Misc.-Category Forums › Music › Lets Talk Metal