Head-Fi.org › Forums › Misc.-Category Forums › Music › Lets Talk Metal
New Posts  All Forums:Forum Nav:

Lets Talk Metal - Page 1168

post #17506 of 17515

To put it mildly, I have been underwhelmed with releases so far this year. What I have heard from this album is fantastic though!

 

www.youtube.com/embed/l9nADKsSly4

 

https://arcaneaustralia.bandcamp.com/album/known-learned-double-album

 

 

Out of all the announced new releases, the only thing I'm really looking forward to in Enslaved. Do you guys think I should have anything else on my radar?

post #17507 of 17515
Quote:
 

foobar2000 1.3.7 / Dynamic Range Meter 1.1.1
log date: 2015-01-25 18:33:33

--------------------------------------------------------------------------------
Analyzed: Marduk / Frontschwein
--------------------------------------------------------------------------------

DR         Peak         RMS     Duration Track
--------------------------------------------------------------------------------
DR5       -0.10 dB    -5.97 dB      3:12 01-Frontschwein
DR5       -0.10 dB    -6.57 dB      4:26 02-The Blond Beast
DR5       -0.10 dB    -6.06 dB      4:00 03-Afrika
DR5       -0.10 dB    -6.19 dB      4:17 04-Wartheland
DR5       -0.10 dB    -5.70 dB      3:52 05-Rope of Regret
DR5       -0.10 dB    -5.76 dB      4:28 06-Between the Wolf-Packs
DR5       -0.10 dB    -5.68 dB      6:17 07-Nebelwerfer
DR5       -0.10 dB    -5.63 dB      4:58 08-Falaise: Cauldron of Blood
DR5       -0.10 dB    -6.16 dB      8:11 09-Doomsday Elite
DR6       -0.10 dB    -7.26 dB      5:12 10-503
DR4       -0.10 dB    -5.30 dB      3:46 11-Thousand-Fold Death
DR5       -0.10 dB    -6.79 dB      2:59 12-Warschau III: Necropolis
--------------------------------------------------------------------------------

Number of tracks:  12
Official DR value: DR5

Samplerate:        44100 Hz
Channels:          2
Bits per sample:   16
Bitrate:           1085 kbps
Codec:             FLAC
================================================================================

 

Dave and Alex are not gonna like this

post #17508 of 17515
Quote:
Originally Posted by campj View Post
 

To put it mildly, I have been underwhelmed with releases so far this year. What I have heard from this album is fantastic though!

 

www.youtube.com/embed/l9nADKsSly4

 

https://arcaneaustralia.bandcamp.com/album/known-learned-double-album

 

 

Out of all the announced new releases, the only thing I'm really looking forward to in Enslaved. Do you guys think I should have anything else on my radar?


I'm still catching up on 2014. Finally put everything on a 2013-14 playlistz: Panopticon-Thou-Machine Head-Old Man Gloom- EyeHateGod-Behemoth-Primordial-Tombs-Godflesh-Revocation-Opeth-Solstafir-Krieg-Evergrey-Truckfighters-Melvins-Boris-At the Gates-Bloodbath-Dead Congregation-Lord Mantis-Epica-Black Crown Initiate-YOB-Electric Wizard...

 

Last year there were a handful of standouts to me-Carcass, Agrimonia, Cult of Luna, Voivod, Darkthrone, Gorguts. This year there  was a larger number of releases I got into.

 

Also been young punk band, White Lung that I think have some metal/hard rock appeal-but they are definitely a female fronted punk band a little like L7/Courtney Love but I think better.

 

-

 

Still reeling over the strong releases last year. It would be great to have another good  Enslaved release tho.


Edited by markm1 - Yesterday at 4:40 pm
post #17509 of 17515
Quote:
Originally Posted by markm1 View Post
 
Quote:
Originally Posted by campj View Post
 

To put it mildly, I have been underwhelmed with releases so far this year. What I have heard from this album is fantastic though!

 

www.youtube.com/embed/l9nADKsSly4

 

https://arcaneaustralia.bandcamp.com/album/known-learned-double-album

 

 

Out of all the announced new releases, the only thing I'm really looking forward to in Enslaved. Do you guys think I should have anything else on my radar?


I'm still catching up on 2014. Finally put everything on a 2013-14 playlistz: Panopticon-Thou-Machine Head-Old Man Gloom- EyeHateGod-Behemoth-Primordial-Tombs-Godflesh-Revocation-Opeth-Solstafir-Krieg-Evergrey-Truckfighters-Melvins-Boris-At the Gates-Bloodbath-Dead Congregation-Lord Mantis-Epica-Black Crown Initiate-YOB-Electric Wizard...

 

Last year there were a handful of standouts to me-Carcass, Agrimonia, Cult of Luna, Voivod, Darkthrone, Gorguts. This year there  was a larger number of releases I got into.

 

Also been young punk band, White Lung that I think have some metal/hard rock appeal-but they are definitely a female fronted punk band a little like L7/Courtney Love but I think better.

 

-

 

Still reeling over the strong releases last year. It would be great to have another good  Enslaved release tho.

That Gorguts man... I get more and more into that as time goes by. I think it's one of my favorite all time releases. I agree that 2013 and 2014 were both great years.

 

 

To name a few albums that get very regular rotation from me...

2014 releases: Artificial Brain, Pyrrhon, Baring Teeth (took me a little while to get into this one, but it's really good),Horrendous, Ne Obliviscaris, Origin, Archspire (DR of 4! haha), ZOM, Panopticon, Carcass

 

2013 releases: Gorguts (FOR THE WIN!), Wormed, Ulcerate, Voivod is pretty sweet, Witherscape, Deeds of Flesh, Monolithe, Ataraxie, The Ocean (!!!), Cerekloth

 

If 2015 is going to measure up to the last two years, a lot has to happen.

post #17510 of 17515
Quote:
Originally Posted by campj View Post
 

That Gorguts man... I get more and more into that as time goes by. I think it's one of my favorite all time releases. I agree that 2013 and 2014 were both great years.

 

 

To name a few albums that get very regular rotation from me...

2014 releases: Artificial Brain, Pyrrhon, Baring Teeth (took me a little while to get into this one, but it's really good),Horrendous, Ne Obliviscaris, Origin, Archspire (DR of 4! haha), ZOM, Panopticon, Carcass

 

2013 releases: Gorguts (FOR THE WIN!), Wormed, Ulcerate, Voivod is pretty sweet, Witherscape, Deeds of Flesh, Monolithe, Ataraxie, The Ocean (!!!), Cerekloth

 

If 2015 is going to measure up to the last two years, a lot has to happen.


I forgot about Ocean. That was a great release.

post #17511 of 17515
New Enslaved trailer.
post #17512 of 17515
Quote:
Originally Posted by Tom Yum Goong View Post

The guy who runs Blood Music deserves a medal.


 

Inspiring, really. Big attraction to metal for me is the passion.
post #17513 of 17515

The cover of the new Black Sheep Wall album is hilarious :D


1. The Wailing and The Gnashing and the Teeth (9:58)
2. Tetsuo the Dead Man (10:03)
3. White Pig (10:12)
4. Metallica (34:24)


A 34 minute song named Metallica....count me in!

post #17514 of 17515
Febuary 23rd were going to get a new Watain record with them playing live Bathory covers. Recorded about five years ago.


They have great live recordings! I listen to and watch the DVD in my box set all the time!


Edited by Redcarmoose - Today at 12:40 pm
post #17515 of 17515

foobar2000 1.2.9 / Dynamic Range Meter 1.1.1
log date: 2015-01-26 15:32:00

--------------------------------------------------------------------------------
Analyzed: Demilich / 20th Adversay Of Emptiness Disc 1
--------------------------------------------------------------------------------

DR         Peak         RMS     Duration Track
--------------------------------------------------------------------------------
DR11       0.00 dB   -11.81 dB      3:42 01-When the Sun Drank the Weight of Water
DR10       0.00 dB   -11.04 dB      3:30 02-The Sixteenth Six-Tooth Son of Fourteen Four-Regional Dimensions (Still Unnamed)
DR12       0.00 dB   -12.55 dB      3:23 03-Inherited Bowel Levitation – Reduced Without Any Effort
DR11       0.00 dB   -11.77 dB      4:27 04-The Echo (Replacement)
DR12       0.00 dB   -13.04 dB      2:40 05-The Putrefying Road in the Nineteenth Extremity (...Somewhere inside the Bowels of Endlessness…)
DR11       0.00 dB   -12.04 dB      4:13 06-(Within) The Chamber of Whispering Eyes
DR10       0.00 dB   -10.78 dB      3:12 07-And You’ll Remain… (in Pieces in Nothingness)
DR12       0.00 dB   -12.42 dB      3:18 08-Erecshyrinol
DR11       0.00 dB   -11.64 dB      3:18 09-The Planet that Once Used to Absorb Flesh in Order to Achieve Divinity and Immortality (Suffocated to the Flesh that it Desired…)
DR12       0.00 dB   -12.41 dB      3:42 10-The Cry
DR11       0.00 dB   -11.78 dB      3:46 11-Embalmed Beauty Sleep
--------------------------------------------------------------------------------

Number of tracks:  11
Official DR value: DR11

Samplerate:        44100 Hz
Channels:          2
Bitrate:           320 kbps
Codec:             MP3
================================================================================

New Posts  All Forums:Forum Nav:
  Return Home
  Back to Forum: Music
Head-Fi.org › Forums › Misc.-Category Forums › Music › Lets Talk Metal