or Connect
Head-Fi.org › Forums › Misc.-Category Forums › Music › Lets Talk Metal
New Posts  All Forums:Forum Nav:

Lets Talk Metal - Page 995

post #14911 of 25479
Quote:
Originally Posted by SomeGuyDude View Post
 

Halmstad is, far and away, Shining's best. It's just a superlative album. Only advice: don't listen to it while drunk and depressed.

 

I only have Halmstad and Född förlorare left. My favorites so far have been Refining Darkness, Klagopsalmer, and The Eerie Cold. Most of the others I didn't like much.

post #14912 of 25479
Quote:
Originally Posted by macrocheesium View Post
 

 

I only have Halmstad and Född förlorare left. My favorites so far have been Refining Darkness, Klagopsalmer, and The Eerie Cold. Most of the others I didn't like much.

 

Haha, damn dude, you have my two favorites left, no lie. If you've got a good ear, you'll notice that VII borrows a lot from V sonically, but they're still both amazing albums. Honestly I'd call them the two best in Shining's discography. At least they're the two I listen to the most.

post #14913 of 25479
Quote:
Originally Posted by SomeGuyDude View Post

Haha, damn dude, you have my two favorites left, no lie. If you've got a good ear, you'll notice that VII borrows a lot from V sonically, but they're still both amazing albums. Honestly I'd call them the two best in Shining's discography. At least they're the two I listen to the most.

+1
I like vii, don't know why but it's good
post #14914 of 25479
Quote:
Originally Posted by Trogdor View Post

For my friend Soup, just because:



Note: If you just arrived discovered this thread and have not heard the BCI EP. I highly suggest you click above.

Hehe I'm happy they got signed. Even if I haven't heard of the label before. So freaking pumped for the new album this year!
post #14915 of 25479

New Incantation:

 

post #14916 of 25479

post #14917 of 25479

post #14918 of 25479

wow amazing demo with remastered trax as real as hell

post #14919 of 25479
post #14920 of 25479
Uhhh, the new Allegaeon...HOLY COW (in a very good way).
post #14921 of 25479
Quote:
Originally Posted by Trogdor View Post

Uhhh, the new Allegaeon...HOLY COW (in a very good way).

That's what I like to hear!
post #14922 of 25479
Quote:
Originally Posted by SoupRKnowva View Post

That's what I like to hear!

I predict it's your AOTY. It's that good.
post #14923 of 25479

I just want to make a shout out to Svart Records. I ordered Vainaja's latest LP from them, and it arrived slightly warped. I sent them one e-mail about what I should do, and they're sending me a replacement copy all the way from Finland. Was very pleasantly surprised.

post #14924 of 25479

Hmmmm damn shame.

 

 

foobar2000 1.2.9 / Dynamic Range Meter 1.1.1
log date: 2014-06-23 19:19:29

--------------------------------------------------------------------------------
Analyzed: Allegaeon / Elements of the Infinite
--------------------------------------------------------------------------------

DR         Peak         RMS     Duration Track
--------------------------------------------------------------------------------
DR5        0.00 dB    -6.54 dB      6:07 01-Threshold of Perception
DR5        0.00 dB    -5.46 dB      4:18 02-Tyrants of the Terrestrial Exodus
DR5        0.00 dB    -6.17 dB      4:47 03-Dyson Sphere
DR5        0.00 dB    -5.86 dB      4:18 04-The Phylogenesis Stretch
DR5        0.00 dB    -5.80 dB      4:18 05-1.618
DR5        0.00 dB    -5.96 dB      5:26 06-Gravimetric Time Dilation
DR5        0.00 dB    -5.81 dB      5:06 07-Our Cosmic Casket
DR5        0.00 dB    -5.79 dB      5:17 08-Biomech II
DR5        0.00 dB    -6.86 dB      5:39 09-Through Ages of Ice - Otzi's Curse
DR5        0.00 dB    -7.64 dB     12:48 10-Genocide for Praise - Vals for the Vitruvian Man
--------------------------------------------------------------------------------

Number of tracks:  10
Official DR value: DR5

Samplerate:        44100 Hz
Channels:          2
Bitrate:           320 kbps
Codec:             MP3
================================================================================

 

post #14925 of 25479
Quote:
Originally Posted by Tom Yum Goong View Post

Hmmmm damn shame.


 

Don't get me started. An true AOTY contender and it sounds so compressed.
New Posts  All Forums:Forum Nav:
  Return Home
  Back to Forum: Music
Head-Fi.org › Forums › Misc.-Category Forums › Music › Lets Talk Metal