or Connect
Head-Fi.org › Forums › Misc.-Category Forums › Music › Lets Talk Metal
New Posts  All Forums:Forum Nav:

Lets Talk Metal - Page 980

post #14686 of 25554
Quote:
Originally Posted by minhminh93 View Post
 

VADER lives in Singapore o.o You guys keep mentioning this band so I'm interested in going but I am not in Singapore then ... FML

They live in Singapore? When not touring? Wow, an hour away flight from me.

post #14687 of 25554
Quote:
Originally Posted by vaed View Post
 

I really need a turntable.

post #14688 of 25554
oops sorry LIVE in Singapore, not lives haha. The ticket is pretty darn cheap too
post #14689 of 25554
Finally got into the Surgical Steel album by Carcass. Great.

http://m.youtube.com/watch?v=IrvOIeMTSwM
Edited by Redcarmoose - 6/5/14 at 10:08am
post #14690 of 25554
Quote:
Originally Posted by Redcarmoose View Post
 

They live in Singapore? When not touring? Wow, an hour away flight from me.

 

 

Quote:
Originally Posted by minhminh93 View Post

oops sorry LIVE in Singapore, not lives haha. The ticket is pretty darn cheap too

 

LOL!!!!

post #14691 of 25554

Iron Maiden livestream from Rock am Ring :)

http://www.swr3.de/musik/rock-am-ring/livestream/-/id=1453978/oga2s9/index.html

They are also gonna stream Opeth on saturday and Metallica on sunday :beerchug:


Edited by Tom Yum Goong - 6/5/14 at 1:50pm
post #14692 of 25554

I loved this band back when I started listening to Metal.
But now they are just super boring and plasticy sounding to me.
I guess you really do "grow out" of certain bands.
Hammerfall is another good example :/

post #14693 of 25554
Quote:
Originally Posted by Tom Yum Goong View Post
 

I loved this band back when I started listening to Metal.
But now they are just super boring and plasticy sounding to me.
I guess you really do "grow out" of certain bands.
Hammerfall is another good example :/

Same here, when I first heard Equilibrium, their colorful, heroic melodies quickly grabbed me, but it didn't leave a lasting impression as the days went on. They're alot like candy to me.

 

Have you guys heard Panopticon's latest new track? Sounds great, like a combination of his more recent post-rock melodic works and his black metal sensibilities from his earlier albums. I'm more excited for this than I was for Kentucky.

 

(For a high quality stream: http://www.metalunderground.com/news/details.cfm?newsid=103390)

 

 


Edited by vaed - 6/6/14 at 7:52am
post #14694 of 25554
Quote:
Originally Posted by vaed View Post
 

Have you guys heard Panopticon's latest new track? Sounds great, like a combination of his more recent post-rock melodic works and his black metal sensibilities from his earlier albums. I'm more excited for this than I was for Kentucky.

 

(For a high quality stream: http://www.metalunderground.com/news/details.cfm?newsid=103390)

 

I listened to the whole album multiple times and I like it a lot more than Kentucky.
It's a bit more.....approachable.

post #14695 of 25554
Quote:
Originally Posted by Tom Yum Goong View Post
 

I loved this band back when I started listening to Metal.
But now they are just super boring and plasticy sounding to me.
I guess you really do "grow out" of certain bands.
Hammerfall is another good example :/

 

Haven't seen that  name in quite a while!

 

 As I think about it, heavymetal.about.com has actually introduced me to alot of metal. 2008, Sagas was touted by them and I bought that disc. I thought it was pretty good-but has limited appeal. But, I remember thinking a pretty good big bombastic symphonic, folk metal release. Pretty epic sounding, intersting arrangements.

 

I can imagine they got a little formulaic.

post #14696 of 25554
Quote:
Originally Posted by markm1 View Post
 

 

Haven't seen that  name in quite a while!

 

 As I think about it, heavymetal.about.com has actually introduced me to alot of metal. 2008, Sagas was touted by them and I bought that disc. I thought it was pretty good-but has limited appeal. But, I remember thinking a pretty good big bombastic symphonic, folk metal release. Pretty epic sounding, intersting arrangements.

 

I can imagine they got a little formulaic.

Very formulaic :|

I still like this track quiet a lot!

post #14697 of 25554

The alternative mix of in the Nightside Eclipse sounds mighty fine :)
Better than the regular one, if you ask me.
 

foobar2000 1.2.9 / Dynamic Range Meter 1.1.1
log date: 2014-06-06 21:40:23

--------------------------------------------------------------------------------
Analyzed: Emperor / In The Nightside Eclipse 20th Anniversary Edition
--------------------------------------------------------------------------------

DR         Peak         RMS     Duration Track
--------------------------------------------------------------------------------
DR8       -0.08 dB   -15.79 dB      0:51 01-Introduction (Alternative Mix 1993)
DR7        0.00 dB    -8.52 dB      8:15 02-Into The Infinity Of Thoughts (Alternative Mix 1993)
DR9        0.00 dB   -10.03 dB      5:36 03-The Burning Shadows Of Silence (Alternative Mix 1993)
DR8        0.00 dB    -9.43 dB      6:04 04-Cosmic Keys To My Creations & Times (Alternative Mix 1993)
DR7        0.00 dB    -8.47 dB      6:00 05-Beyond The Great Vast Forest (Alternative Mix 1993)
DR8        0.00 dB    -9.41 dB      5:58 06-Towards The Pantheon (Alternative Mix 1993)
DR7        0.00 dB    -8.83 dB      4:49 07-The Majesty Of The Nightsky (Alternative Mix 1993)
DR7        0.00 dB    -8.46 dB      6:03 08-I Am The Black Wizards (Alternative Mix 1993)
DR8        0.00 dB    -9.62 dB      4:50 09-Inno A Satana (Alternative Mix 1993)
DR8       -0.02 dB   -10.07 dB      5:03 10-The Majesty Of The Nightsky (4-Track Pre-Prod. 1993)
DR13       0.00 dB   -14.13 dB      5:29 11-The Burning Shadows Of Silence (Pre-Prod. Rehearsal 1993)
DR8       -0.02 dB    -9.31 dB      6:30 12-I Am The Black Wizards (Rehearsal 1993)
--------------------------------------------------------------------------------

Number of tracks:  12
Official DR value: DR8

Samplerate:        44100 Hz
Channels:          2
Bitrate:           320 kbps
Codec:             MP3
================================================================================

post #14698 of 25554
Quote:
Originally Posted by Tom Yum Goong View Post

The alternative mix of in the Nightside Eclipse sounds mighty fine smily_headphones1.gif

Better than the regular one, if you ask me.

 
foobar2000 1.2.9 / Dynamic Range Meter 1.1.1

log date: 2014-06-06 21:40:23

Analyzed: Emperor / In The Nightside Eclipse 20th Anniversary Edition

DR         Peak         RMS     Duration Track


DR8       -0.08 dB   -15.79 dB      0:51 01-Introduction (Alternative Mix 1993)

DR7        0.00 dB    -8.52 dB      8:15 02-Into The Infinity Of Thoughts (Alternative Mix 1993)

DR9        0.00 dB   -10.03 dB      5:36 03-The Burning Shadows Of Silence (Alternative Mix 1993)

DR8        0.00 dB    -9.43 dB      6:04 04-Cosmic Keys To My Creations & Times (Alternative Mix 1993)

DR7        0.00 dB    -8.47 dB      6:00 05-Beyond The Great Vast Forest (Alternative Mix 1993)

DR8        0.00 dB    -9.41 dB      5:58 06-Towards The Pantheon (Alternative Mix 1993)

DR7        0.00 dB    -8.83 dB      4:49 07-The Majesty Of The Nightsky (Alternative Mix 1993)

DR7        0.00 dB    -8.46 dB      6:03 08-I Am The Black Wizards (Alternative Mix 1993)

DR8        0.00 dB    -9.62 dB      4:50 09-Inno A Satana (Alternative Mix 1993)

DR8       -0.02 dB   -10.07 dB      5:03 10-The Majesty Of The Nightsky (4-Track Pre-Prod. 1993)

DR13       0.00 dB   -14.13 dB      5:29 11-The Burning Shadows Of Silence (Pre-Prod. Rehearsal 1993)

DR8       -0.02 dB    -9.31 dB      6:30 12-I Am The Black Wizards (Rehearsal 1993)

Number of tracks:  12

Official DR value: DR8
Samplerate:        44100 Hz

Channels:          2

Bitrate:           320 kbps

Codec:             MP3

================================================================================

I am doing some coverage on this soon. Sorry for being quiet, this week, life got in the way.
post #14699 of 25554

It's on spotify, too, for inquiring ears.

post #14700 of 25554
Any metalheads among us own the AK120, or any A&K model for that matter?

I am wondering if its warmth wod not lend itself well to metal.
New Posts  All Forums:Forum Nav:
  Return Home
  Back to Forum: Music
Head-Fi.org › Forums › Misc.-Category Forums › Music › Lets Talk Metal